<?xml version="1.0" standalone="no"?>
<!DOCTYPE svg PUBLIC "-//W3C//DTD SVG 1.1//EN" "http://www.w3.org/Graphics/SVG/1.1/DTD/svg11.dtd" >
<svg xmlns="http://www.w3.org/2000/svg" xmlns:xlink="http://www.w3.org/1999/xlink" version="1.1">
<metadata></metadata>
<defs>
<font id="lasiverregular" horiz-adv-x="1779" >
<font-face units-per-em="2048" ascent="1536" descent="-512" />
<missing-glyph horiz-adv-x="481" />
<glyph unicode="&#xfb01;" horiz-adv-x="1173" d="M33 893v149h205v175q0 195 106 294t283 99q187 0 323 -103l-59 -147q-106 92 -258 92q-99 0 -159 -63.5t-60 -180.5v-166h581v-1042h-178v893h-403v-893h-176v893h-205z" />
<glyph unicode="&#xfb02;" horiz-adv-x="1239" d="M33 893v149h203v175q0 189 96 288t270 99q70 0 125 -19l-22 -158q-46 17 -99 17q-90 0 -141 -57t-51 -173v-172h278v-149h-278v-893h-178v893h-203zM883 0v1591h178v-1591h-178z" />
<glyph horiz-adv-x="0" />
<glyph horiz-adv-x="682" />
<glyph unicode="&#xd;" horiz-adv-x="1228" />
<glyph unicode=" "  horiz-adv-x="481" />
<glyph unicode="&#x09;" horiz-adv-x="481" />
<glyph unicode="&#xa0;" horiz-adv-x="481" />
<glyph unicode="!" horiz-adv-x="571" d="M166 100q0 51 34 87t85 36q52 0 87.5 -36t35.5 -87t-35.5 -85.5t-87.5 -34.5q-51 0 -85 34.5t-34 85.5zM182 1532h207l-10 -1118h-186z" />
<glyph unicode="&#x22;" horiz-adv-x="679" d="M92 1520h184l-20 -469h-143zM401 1520h187l-23 -469h-141z" />
<glyph unicode="#" horiz-adv-x="1300" d="M16 420l35 141h246l98 406h-260l35 141h260l100 424h148l-103 -424h314l100 424h146l-101 -424h250l-33 -141h-252l-96 -406h264l-32 -141h-265l-100 -420h-147l100 420h-311l-101 -420h-147l100 420h-248zM444 561h314l94 406h-311z" />
<glyph unicode="$" horiz-adv-x="1153" d="M80 301l166 76q106 -230 332 -230q116 0 191 69t75 200q0 49 -13.5 87t-34 64.5t-61.5 51t-80 41.5t-106 42q-82 31 -139.5 58t-110.5 63.5t-85 78t-50.5 97t-18.5 123.5q0 173 93 287t262 137v226h147v-222q266 -27 365 -282l-172 -60q-71 176 -258 176 q-112 0 -179 -68.5t-67 -182.5q0 -45 15 -81.5t37.5 -62t68 -51t87.5 -43.5t115 -45q77 -28 130.5 -53t103.5 -60.5t79 -77t46.5 -99t17.5 -130.5q0 -192 -105.5 -308.5t-283.5 -137.5v-226h-147v226q-292 30 -420 317z" />
<glyph unicode="%" horiz-adv-x="1798" d="M78 1184q0 162 103.5 264t254.5 102q150 0 253.5 -102t103.5 -264q0 -160 -103.5 -261.5t-253.5 -101.5q-151 0 -254.5 101.5t-103.5 261.5zM217 1184q0 -101 63.5 -166.5t155.5 -65.5t155.5 65.5t63.5 166.5q0 105 -63 169t-156 64t-156 -64t-63 -169zM272 0l1082 1532 h172l-1082 -1532h-172zM1006 348q0 160 103.5 261.5t254.5 101.5q149 0 252.5 -101.5t103.5 -261.5q0 -162 -103 -264t-253 -102q-151 0 -254.5 102t-103.5 264zM1145 348q0 -104 62.5 -168.5t156.5 -64.5q92 0 155.5 65t63.5 168q0 101 -64 166.5t-155 65.5q-93 0 -156 -65 t-63 -167z" />
<glyph unicode="&#x26;" horiz-adv-x="1445" d="M86 397q0 77 22.5 140t69 115.5t98 92t127.5 86.5q-98 96 -150 180t-52 183q0 168 113.5 263t285.5 95q170 0 284.5 -97t114.5 -255q0 -68 -24 -125t-73.5 -104.5t-97 -80t-122.5 -75.5l49 -49l299 -307q86 142 156 346l168 -53q-86 -246 -201 -418l326 -334h-254 l-185 190q-197 -206 -467 -206q-217 0 -352 113t-135 300zM274 403q0 -122 84.5 -187.5t219.5 -65.5q196 0 344 161l-344 355l-58 57q-127 -75 -186.5 -145t-59.5 -175zM385 1184q0 -67 44 -125t134 -137q49 27 81 46.5t67 46t55 51t33.5 55.5t13.5 65q0 91 -63 145.5 t-150 54.5q-93 0 -154 -52.5t-61 -149.5z" />
<glyph unicode="'" horiz-adv-x="370" d="M92 1520h184l-20 -469h-143z" />
<glyph unicode="(" horiz-adv-x="522" d="M82 655q0 244 68.5 458.5t179.5 377.5l151 -55q-223 -359 -223 -781t223 -778l-151 -55q-111 162 -179.5 375.5t-68.5 457.5z" />
<glyph unicode=")" horiz-adv-x="522" d="M41 -123q223 356 223 778t-223 781l154 55q109 -165 177 -379.5t68 -456.5t-68 -456t-177 -377z" />
<glyph unicode="*" horiz-adv-x="681" d="M20 1282l33 96l240 -82l-4 254h102l-2 -254l238 82l32 -96l-241 -76l151 -202l-82 -64l-147 209l-145 -209l-82 61l149 205z" />
<glyph unicode="+" horiz-adv-x="1118" d="M68 676v160h405v405h172v-405h406v-160h-406v-414h-172v414h-405z" />
<glyph unicode="," horiz-adv-x="434" d="M100 -225q102 75 121 209q-50 0 -84.5 33.5t-34.5 82.5q0 50 32.5 85.5t82.5 35.5q53 0 83 -38t30 -99v-4q-3 -255 -230 -385v80z" />
<glyph unicode="-" horiz-adv-x="825" d="M92 453v165h641v-165h-641z" />
<glyph unicode="." horiz-adv-x="442" d="M100 100q0 51 35 87t86 36t87 -36t36 -87t-36 -85.5t-87 -34.5t-86 34.5t-35 85.5z" />
<glyph unicode="/" horiz-adv-x="749" d="M20 -137l523 1669h184l-522 -1669h-185z" />
<glyph unicode="0" horiz-adv-x="1318" d="M111 766q0 375 148.5 580.5t399.5 205.5q254 0 402.5 -206.5t148.5 -579.5q0 -376 -148 -581t-403 -205q-253 0 -400.5 205t-147.5 581zM299 766q0 -298 96 -458.5t264 -160.5t263.5 160.5t95.5 458.5q0 297 -94.5 457.5t-264.5 160.5t-265 -160.5t-95 -457.5z" />
<glyph unicode="1" horiz-adv-x="774" d="M59 1128v187l379 217h152v-1532h-187v1319z" />
<glyph unicode="2" horiz-adv-x="1105" d="M78 1315q156 237 457 237q209 0 332.5 -119t123.5 -329q0 -79 -19.5 -156.5t-44 -138.5t-80 -136t-94 -122t-121.5 -125.5t-126.5 -116.5t-143.5 -124q-15 -13 -22 -19h670v-166h-924v154q275 233 372 325q230 220 304 398q43 103 43 208q0 135 -77 217t-202 82 q-217 0 -329 -188z" />
<glyph unicode="3" horiz-adv-x="1060" d="M35 203l117 121q52 -89 126.5 -133t190.5 -44q133 0 219 78t86 209q0 134 -95 208.5t-247 74.5h-123v162h119q129 0 213 66t84 181q0 118 -71 188t-189 70q-195 0 -299 -176l-115 121q152 223 414 223q205 0 326.5 -113.5t121.5 -308.5q0 -121 -61.5 -204.5 t-161.5 -124.5q126 -43 199.5 -137.5t73.5 -231.5q0 -207 -135.5 -329.5t-352.5 -122.5q-153 0 -259 56.5t-181 166.5z" />
<glyph unicode="4" horiz-adv-x="1228" d="M57 383v141l389 1008h197l-387 -981h457v426h186v-426h285v-168h-285v-383h-186v383h-656z" />
<glyph unicode="5" horiz-adv-x="1144" d="M115 203l118 121q53 -89 130 -133t194 -44q138 0 221.5 85t83.5 233t-87 230.5t-232 82.5q-68 0 -119 -13.5t-107 -43.5h-133v811h797v-166h-610v-455q95 31 184 31q140 0 251 -54t178 -162.5t67 -254.5q0 -227 -134 -359t-354 -132q-296 0 -448 223z" />
<glyph unicode="6" horiz-adv-x="1204" d="M111 713q0 400 141 619.5t405 219.5q245 0 408 -192l-102 -129q-60 76 -132.5 114.5t-173.5 38.5q-173 0 -263 -145t-93 -418v-10q129 129 326 129q217 0 350 -127.5t133 -349.5t-130.5 -352.5t-352.5 -130.5q-260 0 -391 174q-69 96 -97 216.5t-28 342.5zM307 420 q12 -105 74 -180q84 -93 233 -93q145 0 225.5 85t80.5 233q0 151 -85.5 233t-224.5 82q-148 0 -237 -101t-66 -259z" />
<glyph unicode="7" horiz-adv-x="1095" d="M55 1366v166h1002v-123l-760 -1409h-205l739 1366h-776z" />
<glyph unicode="8" horiz-adv-x="1226" d="M111 434q0 147 66 242.5t173 136.5q-92 36 -145 120.5t-53 209.5q0 176 125.5 292.5t334.5 116.5q208 0 333.5 -116t125.5 -293q0 -124 -54 -208.5t-143 -121.5q107 -43 173.5 -139.5t66.5 -239.5q0 -97 -33 -179.5t-95 -144t-158 -96t-216 -34.5q-239 0 -370 127 t-131 327zM297 440q0 -134 83.5 -213.5t231.5 -79.5q149 0 231.5 80t82.5 213q0 134 -85.5 209.5t-228.5 75.5q-145 0 -230 -76t-85 -209zM340 1137q0 -115 70.5 -182.5t201.5 -67.5q130 0 201.5 69.5t71.5 180.5q0 113 -76 180t-197 67t-196.5 -68.5t-75.5 -178.5z" />
<glyph unicode="9" horiz-adv-x="1204" d="M109 1069q0 222 130.5 352.5t352.5 130.5q260 0 391 -174q69 -96 97 -216.5t28 -342.5q0 -400 -141.5 -619.5t-405.5 -219.5q-244 0 -407 192l102 129q61 -77 132.5 -115.5t172.5 -38.5q173 0 263.5 145.5t93.5 418.5v10q-129 -129 -326 -129q-217 0 -350 127.5 t-133 349.5zM299 1067q0 -151 85 -233t224 -82q148 0 237 101t66 259q-12 106 -73 180q-83 92 -234 92q-145 0 -225 -84.5t-80 -232.5z" />
<glyph unicode=":" horiz-adv-x="442" d="M100 100q0 51 35 87t84 36q52 0 87.5 -36t35.5 -87t-35.5 -85.5t-87.5 -34.5q-50 0 -84.5 34.5t-34.5 85.5zM100 940q0 52 35 87.5t86 35.5t87 -35.5t36 -87.5q0 -51 -36 -85t-87 -34t-86 34t-35 85z" />
<glyph unicode=";" horiz-adv-x="442" d="M100 -225q105 78 121 209q-50 0 -84.5 33.5t-34.5 82.5q0 50 32.5 85.5t82.5 35.5q54 0 84.5 -37.5t30.5 -99.5v-2v-2q-3 -253 -232 -385v80zM100 940q0 52 35 87.5t86 35.5t87 -35.5t36 -87.5q0 -51 -36 -85t-87 -34t-86 34t-35 85z" />
<glyph unicode="&#x3c;" horiz-adv-x="1060" d="M55 756l936 475l2 -201l-587 -274l587 -275l-2 -200z" />
<glyph unicode="=" horiz-adv-x="1118" d="M68 426v164h983v-164h-983zM68 918v165h983v-165h-983z" />
<glyph unicode="&#x3e;" horiz-adv-x="1060" d="M68 481l589 275l-589 274l2 201l936 -475l-936 -475z" />
<glyph unicode="?" horiz-adv-x="972" d="M37 1315q156 237 438 237q196 0 326.5 -117t130.5 -302q0 -90 -30 -163t-73.5 -120.5t-113.5 -101.5q-46 -35 -66.5 -52t-46.5 -43.5t-36 -48t-17.5 -52.5t-7.5 -71q0 -17 4 -67h-185q-4 54 -4 73q0 61 11.5 107t40.5 85.5t61.5 69t89.5 72.5q61 46 98 85.5t60.5 95 t23.5 122.5q0 117 -76 188.5t-200 71.5q-196 0 -309 -188zM330 100q0 51 35 87t84 36q52 0 87 -36t35 -87t-35 -85.5t-87 -34.5q-50 0 -84.5 34.5t-34.5 85.5z" />
<glyph unicode="@" horiz-adv-x="1675" d="M98 504q0 156 55.5 292t153 233t235 152.5t296.5 55.5q157 0 294 -55.5t235 -152.5t154 -233t56 -292q0 -202 -82 -308t-217 -106q-145 0 -195 105q-56 -56 -122 -85.5t-160 -29.5q-76 0 -144 26t-122 77t-85.5 134.5t-31.5 188.5q0 106 31.5 189t85.5 134t122.5 77 t147.5 26q154 0 252 -105v86h139v-602q0 -104 102 -104q74 0 121 75.5t47 221.5q0 177 -81.5 320.5t-225 224.5t-321.5 81q-180 0 -323.5 -81t-223.5 -224t-80 -321q0 -182 82.5 -326t223 -221.5t310.5 -77.5q220 0 379 103l35 -103q-88 -54 -185 -80t-229 -26 q-152 0 -286.5 54.5t-232 149.5t-154 232t-56.5 295zM563 506q0 -151 77.5 -229t190.5 -78q144 0 226 100v410q-46 53 -96.5 77.5t-131.5 24.5q-111 0 -188.5 -79.5t-77.5 -225.5z" />
<glyph unicode="A" horiz-adv-x="1589" d="M53 0l645 1532h195l643 -1532h-201l-184 432h-713l-182 -432h-203zM504 600h581l-290 686z" />
<glyph unicode="B" horiz-adv-x="1224" d="M184 0v1532h412q208 0 331.5 -106.5t123.5 -303.5q0 -123 -51 -206t-134 -117q107 -36 168.5 -127.5t61.5 -239.5q0 -214 -129.5 -323t-350.5 -109h-432zM371 166h235q139 0 219 69.5t80 200.5q0 134 -72 201.5t-208 67.5h-254v-539zM371 870h243q119 0 182.5 61.5 t63.5 184.5t-72 186.5t-198 63.5h-219v-496z" />
<glyph unicode="C" horiz-adv-x="1525" d="M111 768q0 171 60.5 319t164 249t243 158.5t295.5 57.5q390 0 588 -288l-135 -107q-161 227 -453 227q-120 0 -225.5 -45t-182 -125t-121 -195.5t-44.5 -250.5q0 -136 44.5 -252.5t121 -196t182 -124.5t225.5 -45q296 0 453 229l135 -109q-198 -288 -588 -288 q-156 0 -295.5 57.5t-243 159t-164 249.5t-60.5 320z" />
<glyph unicode="D" horiz-adv-x="1626" d="M184 0v1532h541q159 0 300 -49t251.5 -142t175 -242t64.5 -335q0 -149 -42 -275t-116 -215t-174 -151.5t-216 -92.5t-243 -30h-541zM371 166h354q94 0 181 23t163.5 71t133 117.5t89.5 169t33 217.5q0 149 -50 266.5t-134.5 189t-190.5 109t-225 37.5h-354v-1200z" />
<glyph unicode="E" horiz-adv-x="1032" d="M184 0v1532h764v-166h-577v-494h522v-163h-522v-543h579v-166h-766z" />
<glyph unicode="F" horiz-adv-x="995" d="M184 0v1532h750v-166h-563v-502h485v-168h-485v-696h-187z" />
<glyph unicode="G" horiz-adv-x="1609" d="M111 768q0 171 60 318.5t162.5 249t241 159t293.5 57.5q387 0 588 -288l-135 -107q-161 227 -449 227q-120 0 -225.5 -45t-181.5 -125t-120 -195.5t-44 -250.5q0 -136 44.5 -252.5t121 -196t182 -124.5t225.5 -45q263 0 408 161v291h-375v168h561v-530 q-103 -125 -253.5 -191.5t-340.5 -66.5q-156 0 -295.5 57.5t-243 159t-164 249.5t-60.5 320z" />
<glyph unicode="H" horiz-adv-x="1593" d="M184 0v1532h187v-653h854v653h184v-1532h-184v711h-854v-711h-187z" />
<glyph unicode="I" horiz-adv-x="555" d="M184 0v1532h187v-1532h-187z" />
<glyph unicode="J" horiz-adv-x="1052" d="M20 334l179 37q61 -224 252 -224q105 0 172 72.5t67 196.5v1116h187v-1096q0 -145 -58.5 -250t-153.5 -155.5t-214 -50.5q-345 0 -431 354z" />
<glyph unicode="K" horiz-adv-x="1413" d="M184 0v1532h187v-791l710 791h234l-590 -674l653 -858h-223l-559 719l-225 -240v-479h-187z" />
<glyph unicode="L" horiz-adv-x="1042" d="M184 0v1532h187v-1366h602v-166h-789z" />
<glyph unicode="M" horiz-adv-x="2027" d="M184 0v1532h189l643 -1264l639 1264h188v-1532h-186v1137l-578 -1137h-131l-577 1137v-1137h-187z" />
<glyph unicode="N" horiz-adv-x="1593" d="M184 0v1532h178l863 -1204v1204h184v-1532h-176l-862 1206v-1206h-187z" />
<glyph unicode="O" d="M111 768q0 173 60 320.5t164.5 248.5t248 158t307.5 57t307.5 -57t248 -158t164.5 -248.5t60 -320.5q0 -174 -60.5 -322t-165 -249t-248 -158t-306.5 -57q-164 0 -307.5 57t-248 158t-164.5 249t-60 322zM299 768q0 -182 78 -323.5t212 -218t300 -76.5t300.5 76.5 t213 218t78.5 323.5q0 273 -168.5 444.5t-423.5 171.5q-124 0 -233 -45t-187.5 -124.5t-124 -195t-45.5 -251.5z" />
<glyph unicode="P" horiz-adv-x="1189" d="M184 0v1532h420q225 0 359.5 -117t134.5 -338t-134 -337.5t-360 -116.5h-233v-623h-187zM371 791h223q142 0 228.5 73t86.5 213q0 141 -86.5 215t-228.5 74h-223v-575z" />
<glyph unicode="Q" d="M111 768q0 173 60 320.5t164.5 248.5t248 158t307.5 57q165 0 308.5 -57t248.5 -158t165 -248.5t60 -320.5q0 -190 -70.5 -346t-197.5 -262l317 -406h-235l-240 305q-160 -77 -356 -77q-164 0 -307.5 57t-248 158t-164.5 249t-60 322zM299 768q0 -182 78 -323.5t212 -218 t300 -76.5q133 0 250 51l-252 321l147 115l260 -334q187 180 187 465q0 273 -168.5 444.5t-423.5 171.5q-124 0 -233 -45t-187.5 -124.5t-124 -195t-45.5 -251.5z" />
<glyph unicode="R" horiz-adv-x="1257" d="M184 0v1532h414q226 0 361 -115.5t135 -337.5q0 -154 -67 -257t-189 -154l346 -668h-205l-326 629q-18 -2 -55 -2h-227v-627h-187zM371 795h217q143 0 229 72t86 212q0 141 -86 214t-229 73h-217v-571z" />
<glyph unicode="S" horiz-adv-x="1153" d="M80 301l168 76q103 -230 330 -230q118 0 193 69t75 200q0 49 -13.5 87t-34 64.5t-61.5 51t-80 41.5t-106 42q-104 38 -172 73.5t-124.5 84.5t-83 113t-26.5 149q0 195 116.5 312.5t324.5 117.5q314 0 428 -284l-174 -60q-71 176 -256 176q-114 0 -181 -68.5t-67 -182.5 q0 -33 7.5 -60.5t19.5 -49t35.5 -42t46 -35.5t60.5 -33t70 -30.5t84 -32.5q77 -28 130.5 -53t103.5 -60.5t79 -77t46.5 -99t17.5 -130.5q0 -212 -127 -331t-336 -119q-350 0 -493 321z" />
<glyph unicode="T" horiz-adv-x="1353" d="M35 1366v166h1284v-166h-549v-1366h-186v1366h-549z" />
<glyph unicode="U" horiz-adv-x="1591" d="M174 590v942h186v-938q0 -211 118 -329t319 -118q199 0 315.5 117.5t116.5 329.5v938h186v-942q0 -287 -168 -448.5t-450 -161.5q-285 0 -454 162t-169 448z" />
<glyph unicode="V" horiz-adv-x="1574" d="M53 1532h201l534 -1274l535 1274h201l-641 -1532h-189z" />
<glyph unicode="W" horiz-adv-x="2379" d="M68 1532h200l434 -1256l414 1256h150l411 -1256l434 1256h199l-541 -1532h-190l-389 1165l-391 -1165h-189z" />
<glyph unicode="X" horiz-adv-x="1417" d="M51 0l520 778l-495 754h217l418 -627l415 627h215l-495 -754l518 -778h-215l-438 653l-443 -653h-217z" />
<glyph unicode="Y" horiz-adv-x="1460" d="M37 1532h215l479 -731l475 731h217l-600 -916v-616h-186v616z" />
<glyph unicode="Z" horiz-adv-x="1302" d="M78 0v145l895 1221h-869v166h1108v-146l-897 -1220h920v-166h-1157z" />
<glyph unicode="[" horiz-adv-x="540" d="M119 -158v1628h377v-147h-201v-1333h201v-148h-377z" />
<glyph unicode="\" horiz-adv-x="749" d="M20 1532h183l524 -1669h-186z" />
<glyph unicode="]" horiz-adv-x="540" d="M47 -10h201v1333h-201v147h377v-1628h-377v148z" />
<glyph unicode="^" horiz-adv-x="1134" d="M61 766l506 795l504 -795h-199l-305 516l-307 -516h-199z" />
<glyph unicode="_" horiz-adv-x="1402" d="M92 0h1219v-166h-1219v166z" />
<glyph unicode="`" horiz-adv-x="483" d="M37 1610h203l209 -391h-140z" />
<glyph unicode="a" horiz-adv-x="1062" d="M115 276q0 150 105.5 232t285.5 82q91 0 211 -21v119q0 104 -56.5 164.5t-152.5 60.5q-83 0 -142 -33.5t-108 -99.5l-111 103q72 90 162 135t215 45q165 0 267 -97.5t102 -267.5v-698h-168v104q-124 -124 -295 -124q-139 0 -227 81t-88 215zM293 291q0 -78 51.5 -120 t136.5 -42q125 0 236 115v194q-100 17 -182 17q-242 0 -242 -164z" />
<glyph unicode="b" horiz-adv-x="1267" d="M178 0v1591h178v-653q115 125 318 125q96 0 183 -33.5t157 -98t111.5 -170.5t41.5 -239q0 -106 -27 -196t-73.5 -153t-108.5 -107t-132 -65t-144 -21q-122 0 -199 36t-137 103v-119h-168zM354 270q51 -68 120 -103.5t173 -35.5q66 0 126 24.5t109 71.5t78 123.5t29 171.5 t-29 171t-77.5 123t-109 72t-126.5 25q-103 0 -172 -36.5t-121 -104.5v-502z" />
<glyph unicode="c" horiz-adv-x="1083" d="M100 522q0 124 41.5 227t112.5 171t166 105.5t203 37.5q256 0 397 -201l-127 -92q-99 143 -270 143q-150 0 -246 -105.5t-96 -285.5q0 -179 96 -285t246 -106q172 0 270 141l127 -92q-142 -200 -397 -200q-108 0 -203 37.5t-166 106t-112.5 171.5t-41.5 227z" />
<glyph unicode="d" horiz-adv-x="1267" d="M100 522q0 133 41.5 239t112 170.5t157.5 98t183 33.5q202 0 317 -125v653h179v-1591h-166v119q-60 -66 -138 -102.5t-200 -36.5q-94 0 -179.5 34t-154.5 99t-110.5 171t-41.5 238zM281 522q0 -96 28.5 -172t77.5 -123t109 -71.5t127 -24.5q103 0 171 35.5t119 103.5v502 q-52 68 -120 104.5t-170 36.5q-67 0 -127.5 -25t-109 -72t-77 -123t-28.5 -171z" />
<glyph unicode="e" horiz-adv-x="1132" d="M100 512q0 126 39.5 231.5t107.5 174.5t158 107t191 38q227 0 339 -155q89 -123 89 -330q0 -54 -6 -113h-737q3 -154 97 -244t238 -90q184 0 285 135l111 -104q-65 -86 -168.5 -134t-227.5 -48q-107 0 -200 35t-164 100.5t-111.5 168t-40.5 228.5zM283 610h567 q0 143 -70 223t-194 80q-122 0 -206 -84t-97 -219z" />
<glyph unicode="f" horiz-adv-x="704" d="M33 893v149h205v175q0 189 96 288t270 99q72 0 123 -19l-20 -158q-46 17 -101 17q-89 0 -140.5 -57t-51.5 -173v-172h278v-149h-278v-893h-176v893h-205z" />
<glyph unicode="g" horiz-adv-x="1247" d="M100 522q0 132 41.5 237.5t110.5 170.5t154.5 99t179.5 34q122 0 200 -36.5t138 -102.5v118h166v-1108q0 -219 -133.5 -347t-350.5 -128q-300 0 -463 205l121 115q136 -166 346 -166q141 0 221 78t80 229v186q-112 -126 -317 -126q-76 0 -147.5 20.5t-134.5 64t-110 106 t-74.5 153t-27.5 198.5zM281 522q0 -96 28.5 -172t77.5 -123t109 -71.5t127 -24.5q102 0 170 36t120 103v504q-52 67 -120 103t-170 36q-67 0 -127.5 -25t-109 -72t-77 -123t-28.5 -171z" />
<glyph unicode="h" horiz-adv-x="1218" d="M178 0v1591h178v-673q118 145 322 145q167 0 269 -110.5t102 -293.5v-659h-177v633q0 119 -64 192.5t-175 73.5q-157 0 -277 -143v-756h-178z" />
<glyph unicode="i" horiz-adv-x="534" d="M150 1411q0 47 34.5 82t81.5 35t83 -35t36 -82q0 -49 -35.5 -83t-83.5 -34q-49 0 -82.5 33.5t-33.5 83.5zM178 0v1042h178v-1042h-178z" />
<glyph unicode="j" horiz-adv-x="534" d="M-297 -375l137 101q31 -57 72 -84t100 -27q170 0 170 209v1218h176v-1216q0 -184 -91 -276.5t-249 -92.5q-211 0 -315 168zM150 1411q0 48 33.5 82.5t82.5 34.5q47 0 83 -35t36 -82q0 -49 -35.5 -83t-83.5 -34q-49 0 -82.5 33.5t-33.5 83.5z" />
<glyph unicode="k" horiz-adv-x="1103" d="M178 0v1591h178v-1054l469 505h217l-415 -452l450 -590h-217l-358 459l-146 -150v-309h-178z" />
<glyph unicode="l" horiz-adv-x="534" d="M178 0v1591h178v-1591h-178z" />
<glyph unicode="m" horiz-adv-x="1894" d="M178 0v1042h170v-133q47 64 129 109t197 45q108 0 190.5 -46.5t128.5 -133.5q54 77 146 128.5t221 51.5q164 0 264 -110.5t100 -293.5v-659h-176v633q0 120 -60.5 193t-170.5 73q-158 0 -283 -151q6 -41 6 -80v-668h-176v633q0 120 -61.5 193t-171.5 73q-158 0 -275 -143 v-756h-178z" />
<glyph unicode="n" horiz-adv-x="1218" d="M178 0v1042h172v-131q47 64 129.5 108t198.5 44q167 0 269 -110.5t102 -293.5v-659h-177v633q0 119 -64 192.5t-175 73.5q-157 0 -277 -143v-756h-178z" />
<glyph unicode="o" horiz-adv-x="1263" d="M100 522q0 159 72.5 283.5t193.5 191t267 66.5q145 0 265 -66.5t192.5 -191t72.5 -283.5t-72.5 -284t-192.5 -191.5t-265 -66.5q-109 0 -206 39.5t-169.5 109t-115 172t-42.5 221.5zM281 522q0 -174 100.5 -282.5t251.5 -108.5q149 0 249.5 108.5t100.5 282.5 q0 175 -100.5 283t-249.5 108q-151 0 -251.5 -108t-100.5 -283z" />
<glyph unicode="p" horiz-adv-x="1267" d="M178 -522v1564h168v-118q60 67 137 103t199 36q94 0 179.5 -34t154.5 -99t110 -170.5t41 -237.5q0 -108 -27.5 -198.5t-74 -153t-110 -106t-134.5 -64t-147 -20.5q-206 0 -318 126v-628h-178zM354 270q52 -67 120.5 -103t172.5 -36q66 0 126 24.5t109 71.5t78 123.5 t29 171.5t-29 171t-77.5 123t-109 72t-126.5 25q-104 0 -172.5 -36t-120.5 -103v-504z" />
<glyph unicode="q" horiz-adv-x="1267" d="M100 522q0 132 41.5 237.5t110.5 170.5t154.5 99t179.5 34q122 0 200 -36.5t138 -102.5v118h166v-1564h-179v628q-112 -126 -317 -126q-76 0 -147.5 20.5t-134.5 64t-110 106t-74.5 153t-27.5 198.5zM281 522q0 -96 28.5 -172t77.5 -123t109 -71.5t127 -24.5 q102 0 170 36t120 103v504q-52 67 -120 103t-170 36q-67 0 -127.5 -25t-109 -72t-77 -123t-28.5 -171z" />
<glyph unicode="r" horiz-adv-x="708" d="M178 0v1042h178v-145q125 152 318 152l-12 -179q-99 0 -169.5 -38t-136.5 -107v-725h-178z" />
<glyph unicode="s" horiz-adv-x="886" d="M68 203l143 80q31 -72 89 -112t136 -40q86 0 132 38t46 112q0 68 -44 102t-156 72q-75 26 -127.5 51.5t-97.5 60.5t-67 82t-22 107q0 134 94.5 220.5t245.5 86.5q121 0 208.5 -52t123.5 -153l-141 -67q-48 122 -185 122q-78 0 -124 -39t-46 -108q0 -23 5 -41.5t20.5 -34 t29 -26t44.5 -24.5t52.5 -22t66.5 -24q60 -21 100.5 -39t81 -43.5t63.5 -55t37.5 -70.5t14.5 -93q0 -146 -101 -229.5t-252 -83.5q-264 0 -370 223z" />
<glyph unicode="t" horiz-adv-x="768" d="M37 893v149h215l2 342h178l-2 -342h277v-149h-277l-4 -569q0 -83 41 -126.5t106 -43.5t111 34l55 -143q-74 -51 -188 -51q-132 0 -216.5 78t-84.5 229l2 592h-215z" />
<glyph unicode="u" horiz-adv-x="1193" d="M170 418v624h176v-626q0 -120 70 -196.5t180 -76.5q112 0 182 76.5t70 196.5v626h176v-624q0 -192 -118 -315t-310 -123q-190 0 -308 123t-118 315z" />
<glyph unicode="v" horiz-adv-x="1073" d="M35 1042h190l312 -821l311 821h190l-403 -1042h-197z" />
<glyph unicode="w" horiz-adv-x="1669" d="M35 1042h188l262 -772l283 772h133l283 -772l260 772h190l-362 -1042h-166l-272 741l-269 -741h-170z" />
<glyph unicode="x" horiz-adv-x="1056" d="M47 0l356 532l-337 510h198l262 -391l267 391h196l-336 -507l357 -535h-201l-283 416l-280 -416h-199z" />
<glyph unicode="y" horiz-adv-x="1073" d="M35 1042h190l312 -815l311 815h190l-622 -1564h-189l217 538z" />
<glyph unicode="z" horiz-adv-x="927" d="M66 0v115l546 782h-536v145h762v-114l-551 -783h579v-145h-800z" />
<glyph unicode="{" horiz-adv-x="514" d="M41 582v147h16q35 0 59 8t36 26.5t17.5 39.5t2 56.5t-9.5 66.5t-17 80q-50 223 36.5 343.5t273.5 120.5h12v-147h-12q-104 0 -136.5 -79.5t-1.5 -252.5q10 -55 15 -96t4 -84.5t-12.5 -73t-36.5 -51.5t-64 -29q39 -8 64 -31t36.5 -52.5t12.5 -73.5t-4 -85t-15 -96 q-31 -171 1.5 -250t136.5 -79h12v-148h-12q-187 0 -273.5 121t-36.5 344q11 50 17 80.5t9.5 66t-2 55.5t-17.5 38.5t-36 26.5t-59 8h-16z" />
<glyph unicode="|" horiz-adv-x="520" d="M170 -137v1669h178v-1669h-178z" />
<glyph unicode="}" horiz-adv-x="514" d="M47 -10h12q104 0 136.5 79.5t-0.5 249.5q-10 55 -15 96t-3.5 85t12.5 73.5t36.5 52.5t65.5 31q-40 7 -65.5 29t-36.5 51.5t-12.5 73t3.5 84.5t15 96q33 172 0.5 252t-136.5 80h-12v147h12q185 0 271.5 -120.5t40.5 -343.5q-12 -48 -18.5 -80t-10 -66.5t1.5 -56t17.5 -40 t36.5 -26.5t59 -8h16v-147h-16q-42 0 -67.5 -13t-37 -34t-10.5 -59t7.5 -74.5t21.5 -94.5q46 -224 -40.5 -344.5t-271.5 -120.5h-12v148z" />
<glyph unicode="~" horiz-adv-x="1097" d="M43 737q69 85 137 126.5t162 41.5q44 0 84.5 -13.5t72.5 -32t64.5 -37.5t74.5 -32.5t89 -13.5q83 0 136.5 29t109.5 96l82 -119q-69 -85 -140.5 -127.5t-169.5 -42.5q-62 0 -117.5 20t-90.5 43.5t-83 43.5t-96 20q-76 0 -127.5 -28t-105.5 -93z" />
<glyph unicode="&#xa1;" horiz-adv-x="571" d="M164 924q0 51 36 85.5t87 34.5t86 -34.5t35 -85.5t-35 -87t-86 -36t-87 36t-36 87zM184 -508l9 1118h186l10 -1118h-205z" />
<glyph unicode="&#xa2;" horiz-adv-x="1067" d="M100 522q0 113 34.5 209t95 163.5t142 110t175.5 54.5v225h147v-225q202 -24 326 -197l-127 -92q-99 143 -270 143q-151 0 -246.5 -105t-95.5 -286q0 -180 95.5 -285.5t246.5 -105.5q172 0 270 141l127 -92q-126 -172 -326 -196v-226h-147v226q-127 17 -227 84.5 t-160 185.5t-60 268z" />
<glyph unicode="&#xa3;" horiz-adv-x="1099" d="M57 672v147h207l-18 193q-28 250 81.5 395t323.5 145q275 0 402 -231l-117 -111q-44 85 -108.5 129.5t-163.5 44.5q-135 0 -197.5 -96t-44.5 -264l20 -205h349v-147h-332l2 -27q15 -124 -5 -221t-57 -152.5t-94 -105.5h750v-166h-981v154q56 26 95.5 58.5t72.5 85.5 t44 134.5t-1 190.5l-4 49h-224z" />
<glyph unicode="&#xa4;" horiz-adv-x="1204" d="M53 41l240 242q-57 97 -57 233q0 137 61 236l-244 243l113 111l240 -240q88 54 198 54q112 0 197 -54l239 240l111 -111l-242 -241q60 -102 60 -238t-60 -233l242 -242l-113 -111l-239 240q-83 -53 -195 -53q-118 0 -201 53l-237 -240zM381 516q0 -128 58 -199t163 -71 q102 0 161.5 71.5t59.5 198.5q0 130 -58 202.5t-163 72.5q-102 0 -161.5 -73.5t-59.5 -201.5z" />
<glyph unicode="&#xa5;" horiz-adv-x="1460" d="M37 1532h217l477 -731l475 731h219l-536 -817h221v-113h-285v-186h285v-113h-285v-303h-186v303h-291v113h291v186h-291v113h225z" />
<glyph unicode="&#xa6;" horiz-adv-x="520" d="M170 -137v653h178v-653h-178zM170 879v653h178v-653h-178z" />
<glyph unicode="&#xa7;" horiz-adv-x="1056" d="M109 166l143 84q35 -74 106 -116t170 -42q104 0 176 45t72 133q0 36 -13 63.5t-33.5 46t-59.5 34t-75.5 25t-96.5 22.5q-77 16 -130 31.5t-105 39.5t-83 53.5t-50 73.5t-19 101q0 86 35 146.5t102 109.5q-105 68 -105 215q0 148 109.5 234.5t275.5 86.5 q132 0 224.5 -52.5t130.5 -151.5l-140 -74q-59 127 -213 127q-89 0 -148.5 -44t-59.5 -126q0 -41 15 -70t48.5 -48.5t70.5 -31t99 -24.5q95 -18 160 -38.5t119.5 -54.5t81 -85.5t26.5 -122.5q0 -84 -32.5 -141t-96.5 -103q70 -35 104.5 -92.5t34.5 -147.5 q0 -151 -123.5 -240t-302.5 -89q-313 0 -417 223zM272 776q0 -36 14 -63t36 -46t61.5 -34t79 -25t100.5 -22q32 -5 101 -23q59 37 86.5 75.5t27.5 100.5q0 37 -14 65t-36 47t-62.5 34.5t-78.5 25.5t-100 23q-43 9 -100 24q-57 -37 -86 -79t-29 -103z" />
<glyph unicode="&#xa8;" horiz-adv-x="602" d="M41 1395q0 43 30.5 73.5t73.5 30.5q46 0 77.5 -30.5t31.5 -73.5q0 -44 -31.5 -74.5t-77.5 -30.5q-43 0 -73.5 30.5t-30.5 74.5zM346 1395q0 43 31.5 73.5t77.5 30.5q44 0 74 -30.5t30 -73.5q0 -44 -30 -74.5t-74 -30.5q-46 0 -77.5 30.5t-31.5 74.5z" />
<glyph unicode="&#xa9;" horiz-adv-x="1193" d="M61 1038q0 219 153.5 367.5t381.5 148.5q149 0 271.5 -68t192.5 -186.5t70 -261.5q0 -221 -153.5 -369.5t-380.5 -148.5q-229 0 -382 148.5t-153 369.5zM135 1038q0 -194 131 -323t330 -129q198 0 329.5 129t131.5 323q0 192 -131.5 321.5t-329.5 129.5q-199 0 -330 -129 t-131 -322zM293 1038q0 143 91 231.5t226 88.5q151 0 238 -115l-66 -59q-62 86 -170 86q-92 0 -154.5 -64.5t-62.5 -167.5q0 -101 63 -166t154 -65q110 0 170 90l66 -61q-86 -117 -238 -117q-134 0 -225.5 89.5t-91.5 229.5z" />
<glyph unicode="&#xaa;" horiz-adv-x="851" d="M90 915q0 119 85 186.5t228 67.5q74 0 164 -12v88q0 83 -43.5 129.5t-117.5 46.5q-65 0 -111 -26.5t-84 -77.5l-96 86q59 73 131.5 109t173.5 36q133 0 216 -78.5t83 -214.5v-559h-144v86q-46 -48 -100 -74t-135 -26q-110 0 -180 63t-70 170zM242 928q0 -60 40.5 -91.5 t108.5 -31.5q98 0 178 84v160q-58 12 -137 12q-190 0 -190 -133z" />
<glyph unicode="&#xab;" horiz-adv-x="1085" d="M31 520l366 449l142 -90l-308 -359l308 -362l-142 -88zM539 520l366 449l139 -90l-305 -359l305 -362l-139 -88z" />
<glyph unicode="&#xac;" horiz-adv-x="1138" d="M78 709v141h966v-512h-139v371h-827z" />
<glyph unicode="&#xad;" horiz-adv-x="825" d="M92 453v165h641v-165h-641z" />
<glyph unicode="&#xae;" horiz-adv-x="1193" d="M61 1038q0 219 153.5 367.5t381.5 148.5q149 0 271.5 -68t192.5 -186.5t70 -261.5q0 -221 -153.5 -369.5t-380.5 -148.5q-229 0 -382 148.5t-153 369.5zM135 1038q0 -194 131 -323t330 -129q198 0 329.5 129t131.5 323q0 192 -131.5 321.5t-329.5 129.5q-199 0 -330 -129 t-131 -322zM379 723v627h233q101 0 160 -48.5t59 -142.5q0 -124 -102 -168l131 -268h-108l-119 246h-21h-133v-246h-100zM479 1051h127q123 0 123 108q0 56 -33 83.5t-90 27.5h-127v-219z" />
<glyph unicode="&#xaf;" horiz-adv-x="602" d="M33 1300v138h538v-138h-538z" />
<glyph unicode="&#xb0;" horiz-adv-x="710" d="M61 1241q0 140 81.5 224.5t211.5 84.5q129 0 212 -85t83 -224q0 -138 -83.5 -222.5t-211.5 -84.5q-130 0 -211.5 84.5t-81.5 222.5zM184 1241q0 -88 47.5 -141t122.5 -53q76 0 124 53t48 141q0 90 -48 143.5t-124 53.5t-123 -53.5t-47 -143.5z" />
<glyph unicode="&#xb1;" horiz-adv-x="1118" d="M68 170v168h983v-168h-983zM68 881v161h405v406h172v-406h406v-161h-406v-414h-172v414h-405z" />
<glyph unicode="&#xb4;" horiz-adv-x="483" d="M35 1219l211 391h200l-270 -391h-141z" />
<glyph unicode="&#xb6;" horiz-adv-x="1363" d="M90 1153q0 186 119.5 282.5t320.5 96.5h793v-133h-141v-1536h-140v1536h-266v-1536h-139v913h-107q-203 0 -321.5 97t-118.5 280z" />
<glyph unicode="&#xb7;" horiz-adv-x="442" d="M100 604q0 51 35 87t86 36t87 -36t36 -87t-36 -86t-87 -35t-86 35t-35 86z" />
<glyph unicode="&#xb8;" horiz-adv-x="561" d="M39 -457l31 97q70 -41 149 -41q59 0 100 24.5t41 75.5q0 53 -49 80.5t-125 27.5q-32 0 -51 -8l58 217h90l-27 -127q105 -3 172.5 -53t67.5 -145q0 -91 -74 -143t-176 -52q-121 0 -207 47z" />
<glyph unicode="&#xba;" horiz-adv-x="1013" d="M82 1114q0 192 124 313t302 121t302 -121t124 -313q0 -127 -58.5 -226.5t-155 -152.5t-212.5 -53t-212.5 53t-155 152.5t-58.5 226.5zM231 1114q0 -136 79 -221.5t198 -85.5q117 0 194.5 85.5t77.5 221.5q0 137 -77.5 222t-194.5 85q-119 0 -198 -85t-79 -222z" />
<glyph unicode="&#xbb;" horiz-adv-x="1085" d="M41 158l305 362l-305 359l139 90l369 -449l-369 -450zM549 158l307 362l-307 359l141 90l367 -449l-367 -450z" />
<glyph unicode="&#xbc;" horiz-adv-x="1572" d="M45 1280v131l213 121h109v-873h-134v721zM59 0l1080 1532h182l-1081 -1532h-181zM881 205v100l204 567h138l-207 -546h233v231h131v-231h154v-121h-154v-205h-131v205h-368z" />
<glyph unicode="&#xbd;" horiz-adv-x="1550" d="M45 1280v131l213 121h109v-873h-134v721zM59 0l1080 1532h182l-1081 -1532h-181zM942 754q91 131 264 131q125 0 198 -69t73 -193q0 -73 -23 -138t-80 -132.5t-94 -104t-123 -111.5q-13 -12 -20 -18h348v-119h-535v111q58 48 79 65.5t70.5 60t69.5 63.5t56.5 58.5t52 63 t35 59.5t26.5 65.5t7 63.5q0 71 -40.5 112.5t-107.5 41.5q-114 0 -172 -96z" />
<glyph unicode="&#xbe;" horiz-adv-x="1701" d="M27 772l84 84q52 -90 163 -90q68 0 113 39t45 106q0 68 -50 105t-130 37h-64v114h66q67 0 109.5 33t42.5 94q0 58 -36.5 92.5t-95.5 34.5q-100 0 -155 -90l-84 84q87 127 239 127q122 0 193.5 -65.5t71.5 -180.5q0 -66 -32.5 -113.5t-86.5 -72.5q145 -54 145 -203 q0 -120 -78.5 -191t-205.5 -71q-168 0 -254 127zM188 0l1080 1532h182l-1081 -1532h-181zM1012 205v100l205 567h137l-207 -546h233v231h131v-231h154v-121h-154v-205h-131v205h-368z" />
<glyph unicode="&#xbf;" horiz-adv-x="972" d="M41 -90q0 130 55 217.5t162 167.5q39 30 56.5 44t42.5 36.5t35 38.5t21.5 39.5t15 49t3.5 58.5q0 22 -4 68h186q2 -27 2 -74q0 -61 -11.5 -107t-40 -85.5t-60 -69t-88.5 -72.5q-94 -71 -139.5 -138t-45.5 -165q0 -116 76.5 -188t200.5 -72q199 0 309 188l119 -116 q-158 -240 -438 -240q-196 0 -326.5 118t-130.5 302zM401 942q0 51 35.5 86t87.5 35q50 0 84.5 -35t34.5 -86t-34.5 -86t-84.5 -35q-52 0 -87.5 35t-35.5 86z" />
<glyph unicode="&#xc0;" horiz-adv-x="1589" d="M53 0l645 1532h197l641 -1532h-201l-184 432h-713l-182 -432h-203zM322 1917h245l303 -289h-165zM504 600h579l-288 686z" />
<glyph unicode="&#xc1;" horiz-adv-x="1589" d="M53 0l645 1532h197l641 -1532h-201l-184 432h-713l-182 -432h-203zM504 600h579l-288 686zM709 1628l305 289h243l-380 -289h-168z" />
<glyph unicode="&#xc2;" horiz-adv-x="1589" d="M53 0l645 1532h197l641 -1532h-201l-184 432h-713l-182 -432h-203zM465 1628l246 293h168l243 -293h-151l-176 184l-177 -184h-153zM504 600h579l-288 686z" />
<glyph unicode="&#xc3;" horiz-adv-x="1589" d="M53 0l645 1532h197l641 -1532h-201l-184 432h-713l-182 -432h-203zM461 1671q-6 100 45 173t139 73q43 0 84 -19.5t67.5 -43t61 -43t66.5 -19.5q49 0 74.5 30t25.5 81h102q6 -102 -45 -174t-139 -72q-43 0 -84 19.5t-67.5 43t-60.5 43t-66 19.5q-48 0 -74.5 -31 t-26.5 -80h-102zM504 600h579l-288 686z" />
<glyph unicode="&#xc4;" horiz-adv-x="1589" d="M53 0l645 1532h197l641 -1532h-201l-184 432h-713l-182 -432h-203zM504 600h579l-288 686zM532 1778q0 44 31 75t74 31q46 0 77 -31t31 -75t-31 -74.5t-77 -30.5q-43 0 -74 30.5t-31 74.5zM838 1778q0 44 31 75t77 31q44 0 74.5 -31t30.5 -75t-30.5 -74.5t-74.5 -30.5 q-46 0 -77 30.5t-31 74.5z" />
<glyph unicode="&#xc5;" horiz-adv-x="1589" d="M53 0l645 1532h197l641 -1532h-201l-184 432h-713l-182 -432h-203zM504 600h579l-288 686zM582 1825q0 87 60.5 142.5t150.5 55.5q89 0 150 -55.5t61 -142.5t-61 -144t-150 -57q-90 0 -150.5 57t-60.5 144zM682 1825q0 -47 32.5 -78t80.5 -31q45 0 77.5 31.5t32.5 77.5 t-32.5 76t-77.5 30q-48 0 -80.5 -29.5t-32.5 -76.5z" />
<glyph unicode="&#xc6;" horiz-adv-x="1959" d="M33 0l1036 1532h805v-166h-576v-494h521v-163h-521v-543h578v-166h-764v432h-567l-285 -432h-227zM662 600h450v682z" />
<glyph unicode="&#xc7;" horiz-adv-x="1525" d="M111 768q0 171 60.5 319t164 249t243 158.5t295.5 57.5q389 0 590 -288l-135 -107q-161 227 -452 227q-161 0 -292 -76.5t-207.5 -218t-76.5 -321.5q0 -136 44.5 -252.5t122 -196t183 -124.5t226.5 -45q295 0 452 229l135 -109q-196 -279 -567 -288l-23 -103 q105 -3 172.5 -53t67.5 -145q0 -91 -74 -143t-176 -52q-121 0 -207 47l31 96q70 -41 150 -41q59 0 100 24.5t41 76.5q0 53 -49 80.5t-125 27.5q-32 0 -51 -8l51 195q-144 13 -271 75.5t-220.5 163t-148 242t-54.5 303.5z" />
<glyph unicode="&#xc8;" horiz-adv-x="1032" d="M100 1917h246l303 -289h-166zM184 0v1532h764v-166h-577v-494h520v-163h-520v-543h579v-166h-766z" />
<glyph unicode="&#xc9;" horiz-adv-x="1032" d="M184 0v1532h764v-166h-577v-494h520v-163h-520v-543h579v-166h-766zM487 1628l306 289h243l-381 -289h-168z" />
<glyph unicode="&#xca;" horiz-adv-x="1032" d="M184 0v1532h764v-166h-577v-494h520v-163h-520v-543h579v-166h-766zM246 1628l246 293h167l244 -293h-151l-177 184l-176 -184h-153z" />
<glyph unicode="&#xcb;" horiz-adv-x="1032" d="M184 0v1532h764v-166h-577v-494h520v-163h-520v-543h579v-166h-766zM313 1778q0 44 31 75t74 31q46 0 77 -31t31 -75t-31 -74.5t-77 -30.5q-43 0 -74 30.5t-31 74.5zM618 1778q0 44 31.5 75t77.5 31q44 0 74 -31t30 -75t-30 -74.5t-74 -30.5q-46 0 -77.5 30.5t-31.5 74.5 z" />
<glyph unicode="&#xcc;" horiz-adv-x="555" d="M-188 1917h245l303 -289h-165zM184 0v1532h187v-1532h-187z" />
<glyph unicode="&#xcd;" horiz-adv-x="555" d="M184 0v1532h187v-1532h-187zM199 1628l305 289h244l-381 -289h-168z" />
<glyph unicode="&#xce;" horiz-adv-x="555" d="M-45 1628l246 293h168l243 -293h-151l-176 184l-176 -184h-154zM184 0v1532h187v-1532h-187z" />
<glyph unicode="&#xcf;" horiz-adv-x="555" d="M23 1778q0 44 30.5 75t73.5 31q46 0 77.5 -31t31.5 -75t-31.5 -74.5t-77.5 -30.5q-43 0 -73.5 30.5t-30.5 74.5zM184 0v1532h187v-1532h-187zM328 1778q0 44 31 75t77 31q44 0 74.5 -31t30.5 -75t-30.5 -74.5t-74.5 -30.5q-46 0 -77 30.5t-31 74.5z" />
<glyph unicode="&#xd0;" horiz-adv-x="1626" d="M-8 692v146h192v694h541q127 0 242.5 -30t215.5 -93t173 -153t115 -216t42 -276q0 -149 -42 -275t-115 -215t-173 -151.5t-215.5 -92.5t-242.5 -30h-541v692h-192zM371 166h354q94 0 180.5 23t163 71t133.5 117.5t90 169t33 217.5q0 119 -33 219.5t-90 170t-133.5 118 t-163 71.5t-180.5 23h-354v-528h334v-146h-334v-526z" />
<glyph unicode="&#xd1;" horiz-adv-x="1593" d="M184 0v1532h178l861 -1204v1204h186v-1532h-178l-860 1206v-1206h-187zM463 1671q-6 100 45 173t139 73q43 0 84 -19.5t67.5 -43t61 -43t66.5 -19.5q49 0 74.5 30t25.5 81h102q6 -102 -45 -174t-139 -72q-43 0 -84 19.5t-67.5 43t-60.5 43t-66 19.5q-48 0 -74.5 -31 t-26.5 -80h-102z" />
<glyph unicode="&#xd2;" d="M111 768q0 173 60 320.5t164.5 248.5t248 158t307.5 57q165 0 308.5 -57t248.5 -158t165 -248.5t60 -320.5q0 -174 -61 -322t-166 -249t-248.5 -158t-306.5 -57q-164 0 -307.5 57t-248 158t-164.5 249t-60 322zM299 768q0 -182 78 -323.5t212 -218t300 -76.5t300.5 76.5 t213 218t78.5 323.5q0 273 -168.5 444.5t-423.5 171.5q-124 0 -233 -45t-187.5 -124.5t-124 -195t-45.5 -251.5zM418 1917h246l303 -289h-166z" />
<glyph unicode="&#xd3;" d="M111 768q0 173 60 320.5t164.5 248.5t248 158t307.5 57q165 0 308.5 -57t248.5 -158t165 -248.5t60 -320.5q0 -174 -61 -322t-166 -249t-248.5 -158t-306.5 -57q-164 0 -307.5 57t-248 158t-164.5 249t-60 322zM299 768q0 -182 78 -323.5t212 -218t300 -76.5t300.5 76.5 t213 218t78.5 323.5q0 273 -168.5 444.5t-423.5 171.5q-124 0 -233 -45t-187.5 -124.5t-124 -195t-45.5 -251.5zM805 1628l305 289h244l-381 -289h-168z" />
<glyph unicode="&#xd4;" d="M111 768q0 173 60 320.5t164.5 248.5t248 158t307.5 57q165 0 308.5 -57t248.5 -158t165 -248.5t60 -320.5q0 -174 -61 -322t-166 -249t-248.5 -158t-306.5 -57q-164 0 -307.5 57t-248 158t-164.5 249t-60 322zM299 768q0 -182 78 -323.5t212 -218t300 -76.5t300.5 76.5 t213 218t78.5 323.5q0 273 -168.5 444.5t-423.5 171.5q-124 0 -233 -45t-187.5 -124.5t-124 -195t-45.5 -251.5zM561 1628l246 293h168l244 -293h-152l-176 184l-176 -184h-154z" />
<glyph unicode="&#xd5;" d="M111 768q0 173 60 320.5t164.5 248.5t248 158t307.5 57q165 0 308.5 -57t248.5 -158t165 -248.5t60 -320.5q0 -174 -61 -322t-166 -249t-248.5 -158t-306.5 -57q-164 0 -307.5 57t-248 158t-164.5 249t-60 322zM299 768q0 -182 78 -323.5t212 -218t300 -76.5t300.5 76.5 t213 218t78.5 323.5q0 273 -168.5 444.5t-423.5 171.5q-124 0 -233 -45t-187.5 -124.5t-124 -195t-45.5 -251.5zM557 1671q-6 100 45 173t139 73q43 0 84 -19.5t67.5 -43t61 -43t66.5 -19.5q49 0 74.5 30t25.5 81h103q6 -101 -45.5 -173.5t-139.5 -72.5q-43 0 -84 19.5 t-67.5 43t-60.5 43t-66 19.5q-48 0 -74.5 -31t-26.5 -80h-102z" />
<glyph unicode="&#xd6;" d="M111 768q0 173 60 320.5t164.5 248.5t248 158t307.5 57q165 0 308.5 -57t248.5 -158t165 -248.5t60 -320.5q0 -174 -61 -322t-166 -249t-248.5 -158t-306.5 -57q-164 0 -307.5 57t-248 158t-164.5 249t-60 322zM299 768q0 -182 78 -323.5t212 -218t300 -76.5t300.5 76.5 t213 218t78.5 323.5q0 273 -168.5 444.5t-423.5 171.5q-124 0 -233 -45t-187.5 -124.5t-124 -195t-45.5 -251.5zM629 1778q0 44 30.5 75t73.5 31q46 0 77.5 -31t31.5 -75t-31.5 -74.5t-77.5 -30.5q-43 0 -73.5 30.5t-30.5 74.5zM934 1778q0 44 31 75t77 31q44 0 74.5 -31 t30.5 -75t-30.5 -74.5t-74.5 -30.5q-46 0 -77 30.5t-31 74.5z" />
<glyph unicode="&#xd7;" horiz-adv-x="1073" d="M104 440l318 318l-316 313l117 117l316 -314l309 310l117 -117l-310 -309l316 -316l-119 -116l-313 313l-318 -317z" />
<glyph unicode="&#xd8;" d="M111 768q0 173 60 320.5t164.5 248.5t248 158t307.5 57q236 0 424 -112l129 168l115 -88l-127 -166q115 -107 178 -256t63 -330q0 -174 -61 -322t-166 -249t-248.5 -158t-306.5 -57q-239 0 -422 112l-127 -166l-117 88l127 166q-115 105 -178 255t-63 331zM299 768 q0 -267 164 -442l743 972q-141 86 -317 86q-124 0 -233 -45t-187.5 -124.5t-124 -195t-45.5 -251.5zM575 233q141 -83 314 -83q166 0 300.5 76.5t213 218t78.5 323.5q0 261 -162 438z" />
<glyph unicode="&#xd9;" horiz-adv-x="1591" d="M174 590v942h186v-938q0 -211 117.5 -329t317.5 -118t317 117.5t117 329.5v938h186v-942q0 -287 -168.5 -448.5t-451.5 -161.5t-452 162.5t-169 447.5zM322 1917h245l303 -289h-165z" />
<glyph unicode="&#xda;" horiz-adv-x="1591" d="M174 590v942h186v-938q0 -211 117.5 -329t317.5 -118t317 117.5t117 329.5v938h186v-942q0 -287 -168.5 -448.5t-451.5 -161.5t-452 162.5t-169 447.5zM707 1628l305 289h243l-381 -289h-167z" />
<glyph unicode="&#xdb;" horiz-adv-x="1591" d="M174 590v942h186v-938q0 -211 117.5 -329t317.5 -118t317 117.5t117 329.5v938h186v-942q0 -287 -168.5 -448.5t-451.5 -161.5t-452 162.5t-169 447.5zM465 1628l246 293h168l243 -293h-151l-176 184l-177 -184h-153z" />
<glyph unicode="&#xdc;" horiz-adv-x="1591" d="M174 590v942h186v-938q0 -211 117.5 -329t317.5 -118t317 117.5t117 329.5v938h186v-942q0 -287 -168.5 -448.5t-451.5 -161.5t-452 162.5t-169 447.5zM532 1778q0 44 31 75t74 31q46 0 77 -31t31 -75t-31 -74.5t-77 -30.5q-43 0 -74 30.5t-31 74.5zM838 1778q0 44 31 75 t77 31q44 0 74.5 -31t30.5 -75t-30.5 -74.5t-74.5 -30.5q-46 0 -77 30.5t-31 74.5z" />
<glyph unicode="&#xdd;" horiz-adv-x="1460" d="M37 1532h217l477 -731l475 731h219l-600 -916v-616h-186v616zM643 1628l305 289h244l-381 -289h-168z" />
<glyph unicode="&#xde;" horiz-adv-x="1196" d="M184 0v1532h187v-205h233q226 0 357 -110t131 -324q0 -212 -131.5 -322t-356.5 -110h-233v-461h-187zM371 629h223q142 0 224.5 66.5t82.5 197.5q0 132 -82.5 199t-224.5 67h-223v-530z" />
<glyph unicode="&#xdf;" horiz-adv-x="1290" d="M174 0v1219q0 173 122.5 281t317.5 108q191 0 301.5 -86t110.5 -232q0 -59 -19 -107t-46.5 -79.5t-55 -60t-46.5 -62.5t-19 -72q0 -36 19.5 -68.5t50 -59t68 -54t75 -61.5t68 -74t50 -98t19.5 -127q0 -175 -119.5 -279t-310.5 -104q-122 0 -209 24l18 152q79 -27 174 -27 q121 0 195 62t74 174q0 52 -19.5 97.5t-50 80t-68 67t-75 64t-68 64t-50 75t-19.5 90.5q0 51 19 94.5t46.5 73.5t55 57.5t46.5 61t19 70.5q0 89 -62 142.5t-174 53.5q-116 0 -188 -68t-72 -180v-1212h-178z" />
<glyph unicode="&#xe0;" horiz-adv-x="1062" d="M115 276q0 150 105.5 232t285.5 82q87 0 211 -21v119q0 104 -56.5 164.5t-152.5 60.5q-83 0 -142 -33.5t-108 -99.5l-113 103q74 90 164 135t215 45q165 0 267 -97.5t102 -267.5v-698h-168v104q-124 -124 -295 -124q-140 0 -227.5 81t-87.5 215zM188 1610h203l209 -391 h-139zM293 291q0 -78 50.5 -120t137.5 -42q121 0 236 115v194q-104 17 -182 17q-242 0 -242 -164z" />
<glyph unicode="&#xe1;" horiz-adv-x="1062" d="M115 276q0 150 105.5 232t285.5 82q87 0 211 -21v119q0 104 -56.5 164.5t-152.5 60.5q-83 0 -142 -33.5t-108 -99.5l-113 103q74 90 164 135t215 45q165 0 267 -97.5t102 -267.5v-698h-168v104q-124 -124 -295 -124q-140 0 -227.5 81t-87.5 215zM293 291q0 -78 50.5 -120 t137.5 -42q121 0 236 115v194q-104 17 -182 17q-242 0 -242 -164zM459 1219l211 391h200l-270 -391h-141z" />
<glyph unicode="&#xe2;" horiz-adv-x="1062" d="M115 276q0 150 105.5 232t285.5 82q87 0 211 -21v119q0 104 -56.5 164.5t-152.5 60.5q-83 0 -142 -33.5t-108 -99.5l-113 103q74 90 164 135t215 45q165 0 267 -97.5t102 -267.5v-698h-168v104q-124 -124 -295 -124q-140 0 -227.5 81t-87.5 215zM205 1221l246 346h165 l246 -346h-151l-179 225l-178 -225h-149zM293 291q0 -78 50.5 -120t137.5 -42q121 0 236 115v194q-104 17 -182 17q-242 0 -242 -164z" />
<glyph unicode="&#xe3;" horiz-adv-x="1062" d="M115 276q0 150 105.5 232t285.5 82q87 0 211 -21v119q0 104 -56.5 164.5t-152.5 60.5q-83 0 -142 -33.5t-108 -99.5l-113 103q74 90 164 135t215 45q165 0 267 -97.5t102 -267.5v-698h-168v104q-124 -124 -295 -124q-140 0 -227.5 81t-87.5 215zM197 1264 q-6 100 45 171.5t139 71.5q36 0 68.5 -12.5t57.5 -30.5t48.5 -36.5t50 -31t53.5 -12.5q49 0 75 30t26 79h102q6 -101 -45 -172.5t-139 -71.5q-43 0 -84 19.5t-68 43t-61 43t-66 19.5q-48 0 -74 -31t-26 -79h-102zM293 291q0 -78 50.5 -120t137.5 -42q121 0 236 115v194 q-104 17 -182 17q-242 0 -242 -164z" />
<glyph unicode="&#xe4;" horiz-adv-x="1062" d="M115 276q0 150 105.5 232t285.5 82q87 0 211 -21v119q0 104 -56.5 164.5t-152.5 60.5q-83 0 -142 -33.5t-108 -99.5l-113 103q74 90 164 135t215 45q165 0 267 -97.5t102 -267.5v-698h-168v104q-124 -124 -295 -124q-140 0 -227.5 81t-87.5 215zM272 1395q0 43 31 73.5 t74 30.5q45 0 76.5 -30.5t31.5 -73.5q0 -44 -31 -74.5t-77 -30.5q-43 0 -74 30.5t-31 74.5zM293 291q0 -78 50.5 -120t137.5 -42q121 0 236 115v194q-104 17 -182 17q-242 0 -242 -164zM578 1395q0 43 31.5 73.5t76.5 30.5q44 0 74.5 -30.5t30.5 -73.5q0 -44 -30.5 -74.5 t-74.5 -30.5q-46 0 -77 30.5t-31 74.5z" />
<glyph unicode="&#xe5;" horiz-adv-x="1062" d="M115 276q0 150 105.5 232t285.5 82q87 0 211 -21v119q0 104 -56.5 164.5t-152.5 60.5q-83 0 -142 -33.5t-108 -99.5l-113 103q74 90 164 135t215 45q165 0 267 -97.5t102 -267.5v-698h-168v104q-124 -124 -295 -124q-140 0 -227.5 81t-87.5 215zM293 291q0 -78 50.5 -120 t137.5 -42q121 0 236 115v194q-104 17 -182 17q-242 0 -242 -164zM299 1417q0 94 67.5 155.5t165.5 61.5t165 -61.5t67 -155.5t-67 -156.5t-165 -62.5q-99 0 -166 62t-67 157zM412 1417q0 -51 33 -84t87 -33q52 0 84.5 33t32.5 84q0 50 -32.5 82.5t-84.5 32.5 q-53 0 -86.5 -32.5t-33.5 -82.5z" />
<glyph unicode="&#xe6;" horiz-adv-x="1746" d="M115 272q0 149 106 232.5t285 83.5q34 0 67 -2.5t52 -5t49 -7t43 -6.5v123q0 104 -56.5 163.5t-152.5 59.5q-83 0 -142 -33t-108 -98l-113 101q74 90 164 135t215 45q108 0 192.5 -43.5t129.5 -124.5q67 81 162 124.5t204 43.5q227 0 339 -155t83 -443h-737 q3 -154 97.5 -244t238.5 -90q184 0 285 135l110 -104q-65 -87 -168 -134.5t-227 -47.5q-131 0 -239.5 50.5t-178.5 147.5q-13 -25 -45 -61q-124 -137 -328 -137q-145 0 -236 75t-91 217zM293 285q0 -79 51.5 -117.5t138.5 -38.5q95 0 164.5 57t69.5 162v90q-104 17 -178 17 q-121 0 -183.5 -40.5t-62.5 -129.5zM899 610h567q0 142 -69.5 222.5t-192.5 80.5t-207 -84t-98 -219z" />
<glyph unicode="&#xe7;" horiz-adv-x="1083" d="M100 522q0 124 41.5 227t112.5 171t165.5 105.5t201.5 37.5q255 0 399 -201l-127 -92q-99 143 -270 143q-151 0 -246.5 -105t-95.5 -286q0 -180 95.5 -285.5t246.5 -105.5q172 0 270 141l127 -92q-139 -194 -383 -200l-21 -99q105 -3 172.5 -53t67.5 -145q0 -91 -74 -143 t-176 -52q-121 0 -207 47l31 96q70 -41 150 -41q59 0 100 24.5t41 76.5q0 53 -49 80.5t-125 27.5q-32 0 -51 -8l51 193q-194 26 -320.5 170.5t-126.5 367.5z" />
<glyph unicode="&#xe8;" horiz-adv-x="1132" d="M100 512q0 127 39 232t106.5 174t157.5 107t191 38q227 0 339 -155t83 -443h-735q3 -154 96 -244t237 -90q181 0 287 135l111 -104q-66 -87 -169.5 -134.5t-228.5 -47.5q-106 0 -199 35t-163.5 100.5t-111 168t-40.5 228.5zM252 1610h203l209 -391h-140zM283 610h565 q0 142 -69.5 222.5t-192.5 80.5t-206 -84t-97 -219z" />
<glyph unicode="&#xe9;" horiz-adv-x="1132" d="M100 512q0 127 39 232t106.5 174t157.5 107t191 38q227 0 339 -155t83 -443h-735q3 -154 96 -244t237 -90q181 0 287 135l111 -104q-66 -87 -169.5 -134.5t-228.5 -47.5q-106 0 -199 35t-163.5 100.5t-111 168t-40.5 228.5zM283 610h565q0 142 -69.5 222.5t-192.5 80.5 t-206 -84t-97 -219zM524 1219l211 391h201l-270 -391h-142z" />
<glyph unicode="&#xea;" horiz-adv-x="1132" d="M100 512q0 127 39 232t106.5 174t157.5 107t191 38q227 0 339 -155t83 -443h-735q3 -154 96 -244t237 -90q181 0 287 135l111 -104q-66 -87 -169.5 -134.5t-228.5 -47.5q-106 0 -199 35t-163.5 100.5t-111 168t-40.5 228.5zM268 1221l246 346h166l246 -346h-152l-178 225 l-178 -225h-150zM283 610h565q0 142 -69.5 222.5t-192.5 80.5t-206 -84t-97 -219z" />
<glyph unicode="&#xeb;" horiz-adv-x="1132" d="M100 512q0 127 39 232t106.5 174t157.5 107t191 38q227 0 339 -155t83 -443h-735q3 -154 96 -244t237 -90q181 0 287 135l111 -104q-66 -87 -169.5 -134.5t-228.5 -47.5q-106 0 -199 35t-163.5 100.5t-111 168t-40.5 228.5zM283 610h565q0 142 -69.5 222.5t-192.5 80.5 t-206 -84t-97 -219zM336 1395q0 43 30.5 73.5t73.5 30.5q46 0 77.5 -30.5t31.5 -73.5q0 -44 -31.5 -74.5t-77.5 -30.5q-43 0 -73.5 30.5t-30.5 74.5zM641 1395q0 43 31.5 73.5t77.5 30.5q44 0 74 -30.5t30 -73.5q0 -44 -30 -74.5t-74 -30.5q-46 0 -77.5 30.5t-31.5 74.5z " />
<glyph unicode="&#xec;" horiz-adv-x="534" d="M-80 1610h203l209 -391h-139zM178 0v1042h178v-1042h-178z" />
<glyph unicode="&#xed;" horiz-adv-x="534" d="M178 0v1042h178v-1042h-178zM193 1219l210 391h201l-270 -391h-141z" />
<glyph unicode="&#xee;" horiz-adv-x="534" d="M-63 1221l245 346h166l246 -346h-152l-178 225l-178 -225h-149zM178 0v1042h178v-1042h-178z" />
<glyph unicode="&#xef;" horiz-adv-x="534" d="M4 1395q0 43 31 73.5t74 30.5q45 0 76.5 -30.5t31.5 -73.5q0 -44 -31 -74.5t-77 -30.5q-43 0 -74 30.5t-31 74.5zM178 0v1042h178v-1042h-178zM309 1395q0 43 31.5 73.5t77.5 30.5q44 0 74 -30.5t30 -73.5q0 -44 -30 -74.5t-74 -30.5q-46 0 -77.5 30.5t-31.5 74.5z" />
<glyph unicode="&#xf0;" horiz-adv-x="1228" d="M100 479q0 113 39 208.5t105 159.5t154.5 100t187.5 36q194 0 319 -119q-53 295 -213 443l-203 -160l-81 80l190 149q-142 80 -340 80v135q276 0 467 -116l188 149l82 -78l-178 -139q295 -258 295 -850q0 -142 -38.5 -253t-107 -181t-159.5 -106.5t-199 -36.5 q-143 0 -258 59.5t-182.5 174t-67.5 265.5zM281 483q0 -164 91.5 -258t235.5 -94q148 0 237 96.5t89 272.5q0 146 -93 238.5t-233 92.5q-144 0 -235.5 -94.5t-91.5 -253.5z" />
<glyph unicode="&#xf1;" horiz-adv-x="1218" d="M178 0v1042h170v-131q116 152 330 152q166 0 268.5 -111t102.5 -293v-659h-179v633q0 119 -64 192.5t-173 73.5q-157 0 -277 -143v-756h-178zM266 1264q-6 100 45.5 171.5t139.5 71.5q36 0 68.5 -12.5t57.5 -30.5t48.5 -36.5t50 -31t53.5 -12.5q49 0 74.5 30t25.5 79h103 q6 -101 -45 -172.5t-139 -71.5q-43 0 -84 19.5t-68 43t-61 43t-66 19.5q-48 0 -74 -31t-26 -79h-103z" />
<glyph unicode="&#xf2;" horiz-adv-x="1263" d="M100 522q0 159 72.5 283.5t193 191t265.5 66.5q146 0 266 -66.5t192 -191t72 -283.5t-72 -284t-192.5 -191.5t-265.5 -66.5t-265.5 66.5t-193 191.5t-72.5 284zM281 522q0 -174 101.5 -282.5t250.5 -108.5t250.5 108.5t101.5 282.5q0 175 -101 283t-251 108t-251 -108 t-101 -283zM289 1610h203l208 -391h-139z" />
<glyph unicode="&#xf3;" horiz-adv-x="1263" d="M100 522q0 159 72.5 283.5t193 191t265.5 66.5q146 0 266 -66.5t192 -191t72 -283.5t-72 -284t-192.5 -191.5t-265.5 -66.5t-265.5 66.5t-193 191.5t-72.5 284zM281 522q0 -174 101.5 -282.5t250.5 -108.5t250.5 108.5t101.5 282.5q0 175 -101 283t-251 108t-251 -108 t-101 -283zM559 1219l211 391h201l-271 -391h-141z" />
<glyph unicode="&#xf4;" horiz-adv-x="1263" d="M100 522q0 159 72.5 283.5t193 191t265.5 66.5q146 0 266 -66.5t192 -191t72 -283.5t-72 -284t-192.5 -191.5t-265.5 -66.5t-265.5 66.5t-193 191.5t-72.5 284zM281 522q0 -174 101.5 -282.5t250.5 -108.5t250.5 108.5t101.5 282.5q0 175 -101 283t-251 108t-251 -108 t-101 -283zM305 1221l246 346h166l246 -346h-152l-178 225l-178 -225h-150z" />
<glyph unicode="&#xf5;" horiz-adv-x="1263" d="M100 522q0 159 72.5 283.5t193 191t265.5 66.5q146 0 266 -66.5t192 -191t72 -283.5t-72 -284t-192.5 -191.5t-265.5 -66.5t-265.5 66.5t-193 191.5t-72.5 284zM281 522q0 -174 101.5 -282.5t250.5 -108.5t250.5 108.5t101.5 282.5q0 175 -101 283t-251 108t-251 -108 t-101 -283zM297 1264q-6 100 45 171.5t139 71.5q43 0 84 -19t67.5 -42.5t61 -42.5t66.5 -19q49 0 74.5 30t25.5 79h103q6 -101 -45.5 -172.5t-139.5 -71.5q-43 0 -84 19.5t-67.5 43t-60.5 43t-66 19.5q-48 0 -74.5 -31t-26.5 -79h-102z" />
<glyph unicode="&#xf6;" horiz-adv-x="1263" d="M100 522q0 159 72.5 283.5t193 191t265.5 66.5q146 0 266 -66.5t192 -191t72 -283.5t-72 -284t-192.5 -191.5t-265.5 -66.5t-265.5 66.5t-193 191.5t-72.5 284zM281 522q0 -174 101.5 -282.5t250.5 -108.5t250.5 108.5t101.5 282.5q0 175 -101 283t-251 108t-251 -108 t-101 -283zM373 1395q0 43 30.5 73.5t73.5 30.5q46 0 77.5 -30.5t31.5 -73.5q0 -44 -31.5 -74.5t-77.5 -30.5q-43 0 -73.5 30.5t-30.5 74.5zM678 1395q0 43 31.5 73.5t76.5 30.5q44 0 74.5 -30.5t30.5 -73.5q0 -44 -30.5 -74.5t-74.5 -30.5q-46 0 -77 30.5t-31 74.5z" />
<glyph unicode="&#xf7;" horiz-adv-x="1118" d="M68 676v166h983v-166h-983zM440 322q0 52 34 87t85 35t87 -35t36 -87q0 -50 -36 -85.5t-87 -35.5q-50 0 -84.5 35.5t-34.5 85.5zM440 1194q0 51 34 87t85 36t87 -36t36 -87t-36 -85t-87 -34t-85 34t-34 85z" />
<glyph unicode="&#xf8;" horiz-adv-x="1263" d="M100 522q0 159 72.5 283.5t193 191t265.5 66.5q149 0 278 -74l86 113l97 -74l-86 -115q155 -152 155 -391q0 -159 -72 -284t-192.5 -191.5t-265.5 -66.5q-150 0 -277 73l-88 -116l-100 73l90 119q-156 156 -156 393zM281 522q0 -150 79 -256l453 596q-79 51 -180 51 q-150 0 -251 -108t-101 -283zM453 182q79 -51 180 -51q149 0 250.5 108.5t101.5 282.5q0 150 -80 258z" />
<glyph unicode="&#xf9;" horiz-adv-x="1193" d="M170 418v624h178v-626q0 -120 69 -196.5t179 -76.5q113 0 182.5 76t69.5 197v626h176v-624q0 -192 -118 -315t-310 -123q-190 0 -308 123t-118 315zM252 1610h203l209 -391h-140z" />
<glyph unicode="&#xfa;" horiz-adv-x="1193" d="M170 418v624h178v-626q0 -120 69 -196.5t179 -76.5q113 0 182.5 76t69.5 197v626h176v-624q0 -192 -118 -315t-310 -123q-190 0 -308 123t-118 315zM522 1219l211 391h201l-270 -391h-142z" />
<glyph unicode="&#xfb;" horiz-adv-x="1193" d="M170 418v624h178v-626q0 -120 69 -196.5t179 -76.5q113 0 182.5 76t69.5 197v626h176v-624q0 -192 -118 -315t-310 -123q-190 0 -308 123t-118 315zM268 1221l246 346h166l246 -346h-152l-178 225l-178 -225h-150z" />
<glyph unicode="&#xfc;" horiz-adv-x="1193" d="M170 418v624h178v-626q0 -120 69 -196.5t179 -76.5q113 0 182.5 76t69.5 197v626h176v-624q0 -192 -118 -315t-310 -123q-190 0 -308 123t-118 315zM336 1395q0 43 30.5 73.5t73.5 30.5q46 0 77.5 -30.5t31.5 -73.5q0 -44 -31.5 -74.5t-77.5 -30.5q-43 0 -73.5 30.5 t-30.5 74.5zM641 1395q0 43 31.5 73.5t77.5 30.5q44 0 74 -30.5t30 -73.5q0 -44 -30 -74.5t-74 -30.5q-46 0 -77.5 30.5t-31.5 74.5z" />
<glyph unicode="&#xfd;" horiz-adv-x="1073" d="M35 1042h190l312 -815l311 815h190l-622 -1564h-189l217 538zM465 1219l211 391h201l-271 -391h-141z" />
<glyph unicode="&#xfe;" horiz-adv-x="1267" d="M178 -522v2113h178v-653q117 125 326 125q94 0 179.5 -34t154.5 -99t110 -170.5t41 -237.5q0 -108 -27.5 -198.5t-74 -153t-110 -106t-134.5 -64t-147 -20.5q-206 0 -318 126v-628h-178zM354 270q52 -67 120.5 -103t172.5 -36q66 0 126 24.5t109 71.5t78 123.5t29 171.5 t-29 171t-77.5 123t-109 72t-126.5 25q-104 0 -172.5 -36t-120.5 -103v-504z" />
<glyph unicode="&#xff;" horiz-adv-x="1073" d="M35 1042h190l312 -815l311 815h190l-622 -1564h-189l217 538zM276 1395q0 43 31 73.5t74 30.5q45 0 76.5 -30.5t31.5 -73.5q0 -44 -31 -74.5t-77 -30.5q-43 0 -74 30.5t-31 74.5zM582 1395q0 43 31.5 73.5t76.5 30.5q44 0 74.5 -30.5t30.5 -73.5q0 -44 -30.5 -74.5 t-74.5 -30.5q-46 0 -77 30.5t-31 74.5z" />
<glyph unicode="&#x152;" horiz-adv-x="2326" d="M111 768q0 173 60 320.5t164.5 248.5t248 158t307.5 57q179 0 331.5 -65t258.5 -184v229h764v-166h-578v-489v-5h520v-163h-516l-4 -50v-493h580v-166h-766v233q-108 -121 -260 -186t-330 -65q-164 0 -307.5 57t-248 158t-164.5 249t-60 322zM299 768q0 -137 45.5 -253.5 t124 -196.5t187.5 -125.5t233 -45.5t233 45.5t187.5 125.5t124 196.5t45.5 253.5q0 181 -77.5 322.5t-211.5 218.5t-301 77q-124 0 -233 -45t-187.5 -125t-124 -196t-45.5 -252z" />
<glyph unicode="&#x153;" horiz-adv-x="2015" d="M100 522q0 159 72.5 283.5t193 191t265.5 66.5q135 0 250.5 -59.5t187.5 -165.5q67 108 175 166.5t235 58.5q227 0 339 -155t83 -443h-738q3 -154 96.5 -244t237.5 -90q186 0 287 135l110 -104q-65 -87 -168.5 -134.5t-228.5 -47.5q-137 0 -250.5 57t-181.5 164 q-72 -104 -186.5 -162.5t-247.5 -58.5q-145 0 -265.5 66.5t-193 191.5t-72.5 284zM281 522q0 -174 101.5 -282.5t250.5 -108.5q140 0 239 97t111 255v29q0 29 2 41q-10 163 -110 261.5t-242 98.5q-150 0 -251 -108t-101 -283zM1165 610h568q0 142 -70 222.5t-195 80.5 q-122 0 -206 -84t-97 -219z" />
<glyph unicode="&#x178;" horiz-adv-x="1460" d="M37 1532h217l477 -731l475 731h219l-600 -916v-616h-186v616zM467 1778q0 44 30.5 75t73.5 31q46 0 77.5 -31t31.5 -75t-31.5 -74.5t-77.5 -30.5q-43 0 -73.5 30.5t-30.5 74.5zM772 1778q0 44 31.5 75t77.5 31q44 0 74 -31t30 -75t-30 -74.5t-74 -30.5q-46 0 -77.5 30.5 t-31.5 74.5z" />
<glyph unicode="&#x2c6;" horiz-adv-x="724" d="M33 1221l246 346h165l246 -346h-151l-179 225l-178 -225h-149z" />
<glyph unicode="&#x2dc;" horiz-adv-x="739" d="M37 1264q-6 100 45 171.5t139 71.5q43 0 84 -19t67.5 -42.5t61 -42.5t66.5 -19q49 0 74.5 30t25.5 79h102q6 -101 -45 -172.5t-139 -71.5q-43 0 -84 19.5t-67.5 43t-60.5 43t-66 19.5q-48 0 -74.5 -31t-26.5 -79h-102z" />
<glyph unicode="&#x2000;" horiz-adv-x="1011" />
<glyph unicode="&#x2001;" horiz-adv-x="2023" />
<glyph unicode="&#x2002;" horiz-adv-x="1011" />
<glyph unicode="&#x2003;" horiz-adv-x="2023" />
<glyph unicode="&#x2004;" horiz-adv-x="674" />
<glyph unicode="&#x2005;" horiz-adv-x="505" />
<glyph unicode="&#x2006;" horiz-adv-x="337" />
<glyph unicode="&#x2007;" horiz-adv-x="337" />
<glyph unicode="&#x2008;" horiz-adv-x="252" />
<glyph unicode="&#x2009;" horiz-adv-x="404" />
<glyph unicode="&#x200a;" horiz-adv-x="112" />
<glyph unicode="&#x2010;" horiz-adv-x="825" d="M92 453v165h641v-165h-641z" />
<glyph unicode="&#x2011;" horiz-adv-x="825" d="M92 453v165h641v-165h-641z" />
<glyph unicode="&#x2012;" horiz-adv-x="825" d="M92 453v165h641v-165h-641z" />
<glyph unicode="&#x2013;" horiz-adv-x="1153" d="M92 453v165h969v-165h-969z" />
<glyph unicode="&#x2014;" horiz-adv-x="1628" d="M92 453v165h1444v-165h-1444z" />
<glyph unicode="&#x2018;" horiz-adv-x="393" d="M84 1147v2v2q3 252 229 385v-80q-101 -74 -120 -209q51 0 84.5 -33.5t33.5 -83.5t-32 -85t-82 -35q-53 0 -83 38t-30 99z" />
<glyph unicode="&#x2019;" horiz-adv-x="393" d="M80 1012v78q102 78 121 208q-50 0 -84.5 34t-34.5 83q0 52 32.5 86.5t82.5 34.5q53 0 82.5 -37t29.5 -98v-4q-3 -255 -229 -385z" />
<glyph unicode="&#x201a;" horiz-adv-x="393" d="M80 -225q102 75 121 209q-50 0 -84.5 33.5t-34.5 82.5q0 50 32.5 85.5t82.5 35.5q53 0 82.5 -38t29.5 -99v-4q-3 -255 -229 -385v80z" />
<glyph unicode="&#x201c;" horiz-adv-x="735" d="M72 1147v2v2q3 252 229 385v-80q-102 -75 -121 -209q51 0 85 -33.5t34 -83.5t-32.5 -85t-82.5 -35q-53 0 -82.5 38t-29.5 99zM416 1147v2v2q3 255 229 385v-80q-102 -75 -121 -209q50 0 84.5 -34t34.5 -83q0 -50 -32.5 -85t-82.5 -35q-53 0 -82.5 38t-29.5 99z" />
<glyph unicode="&#x201d;" horiz-adv-x="735" d="M68 1010v80q101 74 120 208q-50 0 -84 34t-34 83q0 51 32 86t82 35q53 0 83 -38t30 -99v-2v-2q-3 -255 -229 -385zM412 1010v80q101 74 120 208q-50 0 -84 34t-34 83q0 51 32 86t82 35q53 0 83 -38t30 -99v-4q-3 -255 -229 -385z" />
<glyph unicode="&#x201e;" horiz-adv-x="735" d="M80 -225q102 75 121 209q-50 0 -84.5 33.5t-34.5 82.5q0 50 32.5 85.5t82.5 35.5q53 0 82.5 -38t29.5 -99v-2v-2q-3 -255 -229 -385v80zM420 -225q105 78 121 209q-50 0 -84.5 33.5t-34.5 82.5q0 50 32.5 85.5t82.5 35.5q54 0 84 -37.5t30 -99.5v-4q-3 -254 -231 -385v80 z" />
<glyph unicode="&#x2022;" horiz-adv-x="714" d="M111 522q0 103 71.5 174.5t175.5 71.5q102 0 174 -72t72 -174q0 -103 -72.5 -175.5t-173.5 -72.5q-104 0 -175.5 72.5t-71.5 175.5z" />
<glyph unicode="&#x2026;" horiz-adv-x="1280" d="M100 100q0 51 35 87t84 36q52 0 87.5 -36t35.5 -87t-35.5 -85.5t-87.5 -34.5q-50 0 -84.5 34.5t-34.5 85.5zM518 100q0 51 35 87t86 36t87 -36t36 -87t-36 -85.5t-87 -34.5t-86 34.5t-35 85.5zM938 100q0 51 34 87t85 36q52 0 87.5 -36t35.5 -87t-35.5 -85.5t-87.5 -34.5 q-51 0 -85 34.5t-34 85.5z" />
<glyph unicode="&#x202f;" horiz-adv-x="404" />
<glyph unicode="&#x2039;" horiz-adv-x="628" d="M31 520l430 447l127 -113l-342 -334l342 -336l-127 -110z" />
<glyph unicode="&#x203a;" horiz-adv-x="628" d="M41 184l340 336l-340 334l125 113l430 -447l-430 -446z" />
<glyph unicode="&#x205f;" horiz-adv-x="505" />
<glyph unicode="&#x20ac;" horiz-adv-x="1404" d="M16 530l41 113h168q-6 59 -6 123q0 60 6 119h-209l41 110h183q51 263 215 410t409 147q243 0 422 -131l-59 -157q-141 122 -355 122q-170 0 -283 -102.5t-155 -288.5h678l-41 -110h-655q-6 -55 -6 -119t6 -123h555l-41 -113h-496q45 -183 158 -284t280 -101 q210 0 359 129l80 -155q-96 -70 -202.5 -104.5t-246.5 -34.5q-245 0 -407 145t-213 405h-226z" />
<glyph unicode="&#x2122;" horiz-adv-x="1814" d="M66 1391v141h667v-141h-270v-594h-131v594h-266zM844 797v735h143l279 -537l278 537h144v-735h-134v512l-256 -512h-65l-258 512v-512h-131z" />
<glyph unicode="&#x25fc;" horiz-adv-x="1044" d="M0 0v1044h1044v-1044h-1044z" />
</font>
</defs>
</svg>
